MediaInfo ile tek tıklamayla detaylı medya bilgisi

Eylül 13, 2009 at 10:08 pm Yorum bırakın

Bu kullanışlı ve küçük program sayesinde tek tıklamayla resim, müzik ve video dosyalarınızın hakkında detaylı bilgi edinebilirsiniz. Dosyaların çözünürlük, fps, bitrate, albüm adı gibi bir çok konuda bilgi alabilirsiniz.

Kullanmak için sadece bir medya dosyasına sağ tıklayıp, gönder>mediainfo demeniz yeterli. Program hakkında daha detaylı bilgi almak için aşşağıdaki örneklere göz atmanızda yarar var. MediaInfo indirmek için buraya…

Örnek bir video dosyası için MediaInfo şu değerleri veriyor:

General
Complete name                    : D:\örnek.avi
Format                           : AVI
Format/Info                      : Audio Video Interleave
File size                        : 707 MiB
Duration                         : 1h 56mn
Overall bit rate                 : 848 Kbps
Writing library                  : VirtualDub build 16297/release

Video
Format                           : MPEG-4 Visual
Format profile                   : Simple@L3
Format settings, BVOP            : No
Format settings, QPel            : No
Format settings, GMC             : No warppoints
Format settings, Matrix          : Default (H.263)
Codec ID                         : XVID
Codec ID/Hint                    : XviD
Duration                         : 1h 56mn
Bit rate                         : 783 Kbps
Width                            : 640 pixels
Height                           : 480 pixels
Display aspect ratio             : 4/3
Frame rate                       : 23.976 fps
Resolution                       : 24 bits
Colorimetry                      : 4:2:0
Scan type                        : Progressive
Bits/(Pixel*Frame)               : 0.106
Stream size                      : 653 MiB (92%)
Writing library                  : XviD 1.1.2 (UTC 2006-11-01)

Audio
Format                           : MPEG Audio
Format version                   : Version 2
Format profile                   : Layer 3
Codec ID                         : 55
Codec ID/Hint                    : MP3
Duration                         : 1h 56mn
Bit rate mode                    : Constant
Bit rate                         : 56.0 Kbps
Channel(s)                       : 2 channels
Sampling rate                    : 24.0 KHz
Resolution                       : 16 bits
Stream size                      : 46.6 MiB (7%)
Alignment                        : Split accross interleaves
Interleave, duration             : 42 ms (1.00 video frame)
Interleave, preload duration     : 500 ms

Örnek bir müzik dosyası için MediaInfo şu değerleri veriyor:

General
Complete name                    : D:\örnek.mp3
Format                           : MPEG Audio
File size                        : 11.1 MiB
Duration                         : 4mn 49s
Overall bit rate                 : 320 Kbps
Album                            : A Sense of Purpose
Part/Position                    : 1 / 1 / 1
Part/Total                       :  1
Track name                       : Alias
Track name/Position              : 4
Performer                        : In Flames
Accompaniment                    : In Flames
Composer                         : Anders Fridén/Björn Gelotte/Jesper Strömblad
Publisher                        : Koch
Genre                            : Metal
Recorded date                    : 2008
Writing library                  : LAME3.97
Encoding settings                : MediaMonkey 3.0.3
Cover                            : Yes
Cover description                : thumbnail
Cover type                       : Cover (front)
Cover MIME                       : image/jpeg
Comment                          :

Audio
Format                           : MPEG Audio
Format version                   : Version 1
Format profile                   : Layer 3
Duration                         : 4mn 49s
Bit rate mode                    : Constant
Bit rate                         : 320 Kbps
Channel(s)                       : 2 channels
Sampling rate                    : 44.1 KHz
Resolution                       : 16 bits
Writing library                  : LAME3.97
Encoding settings                : CBR

Örnek bir resim dosyası için MediaInfo şu değerleri veriyor:

General
Complete name                    : C:\örnek.jpg
Format                           : JPEG
File size                        : 153 KiB

Image
Format                           : JPEG
Width                            : 1 680 pixels
Height                           : 1 050 pixels
Resolution                       : 24 bits

Reklamlar

Entry filed under: Ücretsiz. Tags: , , , , , , , , .

FastImageResizer ile hızlı resim boyutlandırma ATI 9.9 ekran kartı sürücülerini yayınlandı

Bir Cevap Yazın

Aşağıya bilgilerinizi girin veya oturum açmak için bir simgeye tıklayın:

WordPress.com Logosu

WordPress.com hesabınızı kullanarak yorum yapıyorsunuz. Çıkış  Yap / Değiştir )

Twitter resmi

Twitter hesabınızı kullanarak yorum yapıyorsunuz. Çıkış  Yap / Değiştir )

Facebook fotoğrafı

Facebook hesabınızı kullanarak yorum yapıyorsunuz. Çıkış  Yap / Değiştir )

Google+ fotoğrafı

Google+ hesabınızı kullanarak yorum yapıyorsunuz. Çıkış  Yap / Değiştir )

Connecting to %s

Trackback this post  |  Subscribe to the comments via RSS Feed


Bağımsız Sinema Dergisi.
Pardus... Özgürlük İçin...

Kategoriler


%d blogcu bunu beğendi: